DVB-T > Bendrai apie skaitmeninę TV

Kaune jau rodo Puko tv HD :)

(1/2) > >>

RolF2:
Prasiskanuokit isnaujo kanalus - Kauno regione Pūkas TV savo tinklu paleido Pūko TV HD

andrius.semas:
Kažkodėl nenoriu tikėti savo akimis, kad dievo pamirštas televizijos kanalas gražiai nušluostė nosį patiems didžiausiems šalies transliuotojams. AŠ - be žado!...

Soliaris:
Tai kad nieko jie ten realiai ir nerodo. Ukrainiečių muzikinį kanalą pagrinde retransliuoja.

Darius:
Atrodo Pūkas TV laidos iš tv studijos bus transliuojamos tikra HD raiška.

andrius.semas:
Video parametrai:
Show contentComplete name                            : F:\PVRRECORD\PukasTV-HD-05042013-1908.pvr\data0001.ts
Format                                   : BDAV
Format/Info                              : Blu-ray Video
File size                                : 1.04 GiB
Duration                                 : 33mn 2s
Overall bit rate mode                    : Variable
Overall bit rate                         : 4 489 Kbps

Video
ID                                       : 4112 (0x1010)
Menu ID                                  : 2049 (0x801)
Format                                   : AVC
Format/Info                              : Advanced Video Codec
Format profile                           : Main@L4.0
Format settings, CABAC                   : Yes
Format settings, ReFrames                : 2 frames
Format settings, GOP                     : M=3, N=12
Codec ID                                 : 27
Duration                                 : 33mn 1s
Bit rate                                 : 4 174 Kbps
Width                                    : 1 920 pixels
Height                                   : 1 080 pixels
Display aspect ratio                     : 16:9
Frame rate                               : 25.000 fps
Color space                              : YUV
Chroma subsampling                       : 4:2:0
Bit depth                                : 8 bits
Scan type                                : Interlaced
Scan order                               : Top Field First
Bits/(Pixel*Frame)                       : 0.081
Stream size                              : 986 MiB (93%)

Audio
ID                                       : 4113 (0x1011)
Menu ID                                  : 2049 (0x801)
Format                                   : MPEG Audio
Format version                           : Version 1
Format profile                           : Layer 2
Codec ID                                 : 3
Duration                                 : 33mn 2s
Bit rate mode                            : Constant
Bit rate                                 : 128 Kbps
Channel(s)                               : 2 channels
Sampling rate                            : 48.0 KHz
Compression mode                         : Lossy
Delay relative to video                  : -768ms
Stream size                              : 30.2 MiB (3%)

Menu
ID                                       : 1025 (0x401)
Menu ID                                  : 2049 (0x801)
List                                     : 4112 (0x1010) (AVC) / 4113 (0x1011) (MPEG Audio)

Navigacija

[0] Pranešimų sąrašas

[#] Kitas puslapis

Eiti į pilną versiją