DVB-T > Bendrai apie skaitmeninę TV

LRT pereina prie 16:9 standarto

(1/2) > >>

Darius:


AlmiUxXx:
Tai ką, vienas liuks beliko, o visi kiti jau dabar 16:9.
Tiesa, pastebėjau, kad LRT turbūt seka Lietuvos Ryto ir BTV keliais ir transliacijas ištisai vykdys plačiaekraniame vaizde.

andrius.semas:
LRT išplatintame oficialiame pranešime taip pat rašoma, kad naujasis formatas atsirado vystantis šiuolaikinės televizijos technologijoms ir yra pritaikytas skaitmeninės televizijos poreikiams.

Be to, siekiant išsaugoti LRT Aukso fondo įrašų ir filmų kokybę, jie toliau bus transliuojami senuoju, įprastiniu 4:3 formatu.

andrius.semas:
Trumpas - 30 sekundžių trukmės - vaizdo įrašas ir jo pagrindinės ypatybės:

General
ID                                       : 110 (0x6E)
Complete name                            : lrt.ts
Format                                   : MPEG-TS
File size                                : 16.8 MiB
Duration                                 : 31s 8ms
Overall bit rate mode                    : Constant
Overall bit rate                         : 4 520 Kbps

Video
ID                                       : 6381 (0x18ED)
Menu ID                                  : 6380 (0x18EC)
Format                                   : AVC
Format/Info                              : Advanced Video Codec
Format profile                           : High@L3.0
Format settings, CABAC                   : Yes
Format settings, ReFrames                : 3 frames
Codec ID                                 : 27
Duration                                 : 30s 760ms
Bit rate                                 : 4 038 Kbps
Width                                    : 720 pixels
Height                                   : 576 pixels
Display aspect ratio                     : 16:9
Frame rate                               : 25.000 fps
Standard                                 : Component
Color space                              : YUV
Chroma subsampling                       : 4:2:0
Bit depth                                : 8 bits
Scan type                                : Interlaced
Scan order                               : Top Field First
Bits/(Pixel*Frame)                       : 0.389
Stream size                              : 14.8 MiB (88%)
Color primaries                          : BT.601 PAL
Transfer characteristics                 : BT.470 System B, BT.470 System G
Matrix coefficients                      : BT.601

Audio
ID                                       : 6382 (0x18EE)
Menu ID                                  : 6380 (0x18EC)
Format                                   : MPEG Audio
Format version                           : Version 1
Format profile                           : Layer 2
Codec ID                                 : 4
Duration                                 : 30s 960ms
Bit rate mode                            : Constant
Bit rate                                 : 256 Kbps
Channel(s)                               : 2 channels
Sampling rate                            : 48.0 KHz
Compression mode                         : Lossy
Delay relative to video                  : -798ms
Stream size                              : 968 KiB (6%)
Language                                 : Lithuanian

Menu
ID                                       : 6380 (0x18EC)
Menu ID                                  : 6380 (0x18EC)
Duration                                 : 31s 8ms
List                                     : 6381 (0x18ED) (AVC) / 6382 (0x18EE) (MPEG Audio, Lithuanian)
Language                                 :  / Lithuanian
Service name                             : LTV MPEG4
Service provider                         : TEO
Service type                             : digital television

Vaizdo įrašo atsisiuntimas į savo PC (tiesioginė nuoroda): http://rghost.net/44761165

andrius.semas:
http://youtu.be/yh73Z1-T_Ys

Navigacija

[0] Pranešimų sąrašas

[#] Kitas puslapis

Eiti į pilną versiją