DVB-T

Rodyti pranešimus

Čia galite matyti visus šio nario pranešimus. Matote tik tuos pranešimus, kurie buvo paskelbti jums prieinamose lentose.


Žinutės - Darius

Puslapiai: 1 2 [3] 4 5 ... 42
32
Pūko TV transliuojamas nauju 738MHz dažniu. Nors ir dažnyje jis tik vienas, bet transliacijos kokybė įprasta 470-500KBs.
http://milvis.lt/pukas-tv-per-dvb-t/

33
Bendrai apie skaitmeninę TV / Sport1 vėl nerodys/ naujas DVB-T tinklas
« Įrašytas: 2012-08-02 12:38:00  »
Sport 1 prašė panaikinti licenciją transliuoti nekoduotai DVB-T tinklu ir ją gavai http://www.rtk.lt/lt/naujienos/pranesimai_spaudai/uab_sporto_komunikacijos_atsisake_licencijos , licencija bus panaikinta nuo rugsėjo 15 dienos.

Tuo tarpu Lietuvos radijo ir televizijos centas laimėjo RRT konkursą dėl laisvų dažnių ir galės dabar turėti trečią savo tinklą.  Kokios programos juo bus transliuojamos sunku pasakyti, bet tinklo įdiegimo darbai prasidės išjungus analoginę antžeminę televiziją. http://verslas.delfi.lt/Media/bus-diegiamas-trecias-skaitmenines-antzemines-televizijos-tinklas.d?id=59231469

34
Ar tiesa, kad Mikrovisata savo vartotojams jau nebetransliuoja TV interneto protokolu IPTV?
Vadinasi ne man vienam nerodo, po MV puslapio atnaujinimo nebeliko informacijos apie IPTV.

35
Deja rodys tik per Interaktyviają Gala t.y. per Gala IPTV. HD kanalųs transliuoti per DVB-T yra sudėtingiau, nes nėra laisvų dažnių. Kai LNK transliavo Šok su manimi HD formatu, buvo išjungti Liux ir Infotv kanalai, kad būtų vietos HD transliacijai.

36
DVB-T žiūrėjimas / Re: Lenku providerio "Emitel" kanalai Kaune
« Įrašytas: 2012-05-01 09:26:56  »
Gal tiesiog palankus oras bangų sklidumui. Aš pamenu Žaliakalny gyvendamas seniau su lenkišku tinkleliu matydavau lenkų analoginius kanalu, kartais per sniegą, o kartais beveik idealiai.

37
Lietuvos radijo ir televizijos komisija š. m. kovo 14 d. UAB „Balticum TV“ prašymu panaikino šios bendrovės licenciją transliuoti televizijos programą „Balticum televizija“ per antrąjį   TEO LT, AB antžeminį skaitmeninį TV tinklą.
    Nemokama skaitmeninė „Balticum televizija“ programa šiuo tinklu nebebus transliuojama nuo š. m. balandžio 30 d.

http://www.rtk.lt/lt/naujienos/pranesimai_spaudai/balticum_televizija_nebebus_transliuojama_antruoju_skaitmeniniu_teo_lt_ab_tinklu

38
DVB-T žiūrėjimas / Re: Alytaus rajone neveikia DVB-T
« Įrašytas: 2012-03-05 15:55:57  »
Galima bandyt kreiptis http://www.lrtc.lt/Kontaktai/ , bet turėtų jie žinoti apie problemą ir bandyti sutvarkyti.

39
Bendrai apie skaitmeninę TV / Lietuvos ryto TV transliuojama internetu
« Įrašytas: 2012-01-24 19:14:15  »
http://tv.lrytas.lt/live/ Atrodo bus netransliuojamos tik užsienio produkcija.

40
Bendrai apie skaitmeninę TV / LNK HD transliacijos nuo 2014 metų
« Įrašytas: 2012-01-22 10:51:35  »
Pasirodė toks pesimistinis straipsnis http://www.15min.lt/naujiena/pinigai/itkodas/aukstos-raiskos-televizijos-sulauksime-dar-negreit-51-190983 Jo esmė, jog HD transliuoti yra brangu, o kol kas žiūrovų mažai, nes tik technologijomis besidomintis žino kas  tas HD.

Tačiau LNK planuose numatyta HD transliaciją pradėti 2014 metais. Įdomu jog transliuojant šokių projektą HD formate įrangos nuoma kainavo 8 k eurų ir tai yra 3-4 kartus daugiau nei SD atveju.

42
Nesuprantu tik vieno dalyko. Nors mano nešiojamas kompiuteris nėra senas, tačiau VLC vaizdo grotuvas labai nenoriai rodo LNK HD vaizdo įrašą, be to keletą sekundžių atsilieka garsas. Pabandžiau per MHC grotuvą - nestriginėja vaizdas, bet vistiek beatodairiškai atsilieka garsas. Galbūt reikalingas koks nors vaizdo ir garso perkodavimas su specialiomis taikomosiomis programomis, pavyzdžiui, TS Doctor ir panašiai?

MPCHC ir VLC man įrašą gerai rodo, tik kad slenkant laiką VLC vaizdas byra, o MPCHC sustoja vaizdas.

43
Citata
General
ID                               : 1126 (0x466)
Complete name                    : F:\MV IPTV\vlc-record-2011-12-31-18h20m10s-dvb-t___frequency=658000000-.ts
Format                           : MPEG-TS
File size                        : 76.3 MiB
Duration                         : 1mn 29s
Overall bit rate                 : 7 144 Kbps

Video
ID                               : 69 (0x45)
Menu ID                          : 1 (0x1)
Format                           : AVC
Format/Info                      : Advanced Video Codec
Format profile                   : Main@L4.0
Format settings, CABAC           : Yes
Format settings, ReFrames        : 4 frames
Format settings, GOP             : M=1, N=60
Codec ID                         : 27
Duration                         : 1mn 29s
Bit rate                         : 6 533 Kbps
Width                            : 1 920 pixels
Height                           : 1 080 pixels
Display aspect ratio             : 16:9
Frame rate                       : 25.000 fps
Color space                      : YUV
Chroma subsampling               : 4:2:0
Bit depth                        : 8 bits
Scan type                        : Interlaced
Scan order                       : Top Field First
Bits/(Pixel*Frame)               : 0.126
Stream size                      : 69.7 MiB (91%)
Color primaries                  : BT.709-5, BT.1361, IEC 61966-2-4, SMPTE RP177
Transfer characteristics         : BT.709-5, BT.1361
Matrix coefficients              : BT.709-5, BT.1361, IEC 61966-2-4 709, SMPTE RP177

Audio
ID                               : 68 (0x44)
Menu ID                          : 1 (0x1)
Format                           : MPEG Audio
Format version                   : Version 1
Format profile                   : Layer 2
Codec ID                         : 3
Duration                         : 1mn 29s
Bit rate mode                    : Constant
Bit rate                         : 256 Kbps
Channel(s)                       : 2 channels
Sampling rate                    : 48.0 KHz
Compression mode                 : Lossy
Delay relative to video          : -148ms
Stream size                      : 2.73 MiB (4%)


45
Jau rodo Harry Potter per LNK HD kanalą.

Puslapiai: 1 2 [3] 4 5 ... 42