DVB-T > Bendrai apie skaitmeninę TV

DVB-C vs. DVB-T kokybė

<< < (2/3) > >>

egidijus7:

--- Citata iš: dinux  2014-11-23 00:30:09 ---O autoriui dėl Inito, prisiminiau, kad tėvai mano naudoja Init ......... Pas juos Phillips'as su dvb-c

--- Baigti citatą ---

Kai lankysies pas tėvus, pažiūrėk į Lietuvos Rytas TV kanalo logotipą, ar įskaitomas žodis "Lietuvos"? Tik jei įmanoma, prieš tai reikėtų Philipse atjungti visus vaizdo "pagerintojus".

Prieš pusmetį dar turėjau Vinitos DVB-C, tai kiek pamenu, žodį "Lietuvos" buvo galima įskaityti, tačiau gal blogai prisimenu.

O kiti rodo štai kaip:

dinux:
Tik dabar per šventes aplankiau. Štai palyginimas kur kuris tiekėjas specialiai nerašau.
Mano akimis abu rodo vienodai.


Soliaris:
Tai kitaip ir būt negali. Visi gauna tą patį signalą.

fa1la1:
Mano asmeninė nuomonė - geriausias vaizdo kokybės signalas transliuojamas per kabelinę TV arba išrankus vartotojas turi palydovinį TV imtuvą, pavyzdžiui, naujausio modelio grotuvas OpenWebif Vu+ Duo² nepriekaištingai rodo TV kanalus.

Vaizdo įrašo (šiuo atveju - Lrytas TV kanalas) charakteristika - mediainfo:

General
ID                          : 52 (0x34)
Complete name               : C:\Documents and Settings\My Documents\1_0_1_B68_34_55_300000_0_0_0_.ts
Format                      : MPEG-TS
File size                   : 510 MiB
Duration                    : 23mn 54s
Start time                  : UTC 2015-01-10 09:19:56
End time                    : UTC 2015-01-10 09:43:36
Overall bit rate mode       : Variable
Overall bit rate            : 2 982 Kbps
Country                     : DNK / EST / FIN / LTU / LVA / NOR / SWE
Timezone                    : +02:00:00 / +03:00:00 / +03:00:00 / +03:00:00 / +03:00:00 / +02:00:00 / +02:00:00

Video
ID                          : 2921 (0xB69)
Menu ID                     : 2920 (0xB68)
Format                      : MPEG Video
Format version              : Version 2
Format profile              : Main@Main
Format settings, BVOP       : Yes
Format settings, Matrix     : Custom
Format settings, GOP        : Variable
Format settings, picture st : Frame
Codec ID                    : 2
Duration                    : 23mn 54s
Bit rate mode               : Variable
Bit rate                    : 2 705 Kbps
Maximum bit rate            : 15.0 Mbps
Width                       : 720 pixels
Height                      : 576 pixels
Display aspect ratio        : 16:9
Active Format Description   : Full frame 16:9 image
Frame rate                  : 25.000 fps
Standard                    : PAL
Color space                 : YUV
Chroma subsampling          : 4:2:0
Bit depth                   : 8 bits
Scan type                   : Interlaced
Scan order                  : Top Field First
Compression mode            : Lossy
Bits/(Pixel*Frame)          : 0.261
Stream size                 : 463 MiB (91%)
Encryption                  : Encrypted

Audio
ID                          : 2922 (0xB6A)
Menu ID                     : 2920 (0xB68)
Format                      : MPEG Audio
Format version              : Version 1
Format profile              : Layer 2
Mode                        : Joint stereo
Codec ID                    : 3
Duration                    : 23mn 54s
Bit rate mode               : Constant
Bit rate                    : 128 Kbps
Channel(s)                  : 2 channels
Sampling rate               : 48.0 KHz
Compression mode            : Lossy
Delay relative to video     : -495ms
Stream size                 : 21.9 MiB (4%)
Encryption                  : Encrypted

Menu
ID                          : 2920 (0xB68)
Menu ID                     : 2920 (0xB68)
Duration                    : 23mn 54s
List                        : 2921 (0xB69) (MPEG Video) / 2922 (0xB6A) (MPEG Audio)









AlmiUxXx:

--- Citata iš: fa1la1  2015-01-10 11:46:06 ---Mano asmeninė nuomonė - geriausias vaizdo kokybės signalas transliuojamas per kabelinę TV arba išrankus vartotojas turi palydovinį TV imtuvą, pavyzdžiui, naujausio modelio grotuvas OpenWebif Vu+ Duo² nepriekaištingai rodo TV kanalus.

Vaizdo įrašo (šiuo atveju - Lrytas TV kanalas)

--- Baigti citatą ---
Semai, aš žinau, kad čia tu, (kitame forume su tokiu pačiu nick išsidavei) matosi, kad tau IP banas reikalingas.

Navigacija

[0] Pranešimų sąrašas

[#] Kitas puslapis

[*] Ankstesnis puslapis

Eiti į pilną versiją