Autorius Tema: Mylių Amerika 36s.  (Skaityta 4375 kartus)

Neprisijungęs Darius

  • Administratorius
  • Hero Member
  • *****
  • Įrašai: 627
  • Karma: +2/-1
    • Žiūrėti profilį
    • Radiocool.lt
Mylių Amerika 36s.
« Įrašytas: 2009-09-20 19:36:36 »


Pasirodė man, jog labai gražiai LTV rodė tai įdėjau trumpą ištrauką :)

http://dl.getdropbox.com/u/2077359/dvbt_irasai/vlc-record-2009-09-20-18h37m21s-LTV-.ts

General
ID                               : 7294
Complete name                    : C:\Users\Darius\Documents\My Dropbox\Public\dvbt_irasai\vlc-record-2009-09-20-18h37m21s-LTV-.ts
Format                           : MPEG-TS
File size                        : 10.2 MiB
Duration                         : 36s 444ms
Overall bit rate                 : 2 338 Kbps

Video
ID                               : 69 (0x45)
Menu ID                          : 1 (0x1)
Format                           : AVC
Format/Info                      : Advanced Video Codec
Format profile                   : Main@L3.0
Format settings, CABAC           : Yes
Format settings, ReFrames        : 4 frames
Duration                         : 36s 444ms
Bit rate                         : 1 984 Kbps
Width                            : 720 pixels
Height                           : 576 pixels
Display aspect ratio             : 4:3
Frame rate                       : 25.000 fps
Standard                         : PAL
Resolution                       : 24 bits
Colorimetry                      : 4:2:0
Scan type                        : Interlaced
Scan order                       : Top Field First
Bits/(Pixel*Frame)               : 0.191
Stream size                      : 8.61 MiB (85%)

Audio
ID                               : 68 (0x44)
Menu ID                          : 1 (0x1)
Format                           : MPEG Audio
Format version                   : Version 1
Format profile                   : Layer 2
Duration                         : 36s 432ms
Bit rate mode                    : Constant
Bit rate                         : 192 Kbps
Channel(s)                       : 2 channels
Sampling rate                    : 48.0 KHz
Resolution                       : 16 bits
Video delay                      : -30ms
Stream size                      : 854 KiB (8%)
Language                         : Lithuanian

Ignoruoju privačias žinutes, jei klausimą galima spręsti viešai forume