Autorius Tema: Andrius Pajovis - Something 1080i LRT HD  (Skaityta 5770 kartus)

Neprisijungęs Darius

  • Administratorius
  • Hero Member
  • *****
  • Įrašai: 627
  • Karma: +2/-1
    • Žiūrėti profilį
    • Radiocool.lt
Andrius Pajovis - Something 1080i LRT HD
« Įrašytas: 2013-05-15 09:36:47 »
Įrašyta iš Mikrovisatos DVB-C, siuntimosi nuoroda:
Show content
20130514_224808_[15 LRT HD]_[Eurovizijos dainu konkursas 2013. Pirmas pusfinalis.].ts (383.7 MB)
https://mega.co.nz/#!wFYGWb4Y!FQMJEhiBKhL2ZNP3hLri0yGiUFhuneHS7LconKvpQeM

Tiesa girdisi traškesys, ir 2:17 pabyra vaizdas.

Vaizdo įrašo parametrai:
Show content
General
ID                             : 3 (0x3)
Complete name                  : I:\_MSTPVR\20130514_224808_[15 LRT HD]_[Eurovizijos dainu konkursas 2013. Pirmas pusfinalis.].ts
Format                         : BDAV
Format/Info                    : Blu-ray Video
File size                      : 384 MiB
Duration                       : 4mn 14s
Start time                     : UTC 2013-05-14 19:48:14
End time                       : UTC 2013-05-14 19:52:23
Overall bit rate mode          : Variable
Overall bit rate               : 12.6 Mbps
Network name                   : Mikrovisata Cable
Country                        : LTU
Timezone                       : +02:00:00

Video
ID                             : 611 (0x263)
Menu ID                        : 25 (0x19)
Format                         : AVC
Format/Info                    : Advanced Video Codec
Format profile                 : High@L4.0
Format settings, CABAC         : Yes
Format settings, ReFrames      : 4 frames
Codec ID                       : 27
Duration                       : 4mn 13s
Bit rate                       : 11.8 Mbps
Width                          : 1 920 pixels
Height                         : 1 080 pixels
Display aspect ratio           : 16:9
Frame rate                     : 25.000 fps
Standard                       : Component
Color space                    : YUV
Chroma subsampling             : 4:2:0
Bit depth                      : 8 bits
Scan type                      : Interlaced
Scan order                     : Top Field First
Bits/(Pixel*Frame)             : 0.227
Stream size                    : 356 MiB (93%)
Color primaries                : BT.709
Transfer characteristics       : BT.709
Matrix coefficients            : BT.709

Audio
ID                             : 612 (0x264)
Menu ID                        : 25 (0x19)
Format                         : MPEG Audio
Format version                 : Version 1
Format profile                 : Layer 2
Codec ID                       : 4
Duration                       : 4mn 14s
Bit rate mode                  : Constant
Bit rate                       : 320 Kbps
Channel(s)                     : 2 channels
Sampling rate                  : 48.0 KHz
Compression mode               : Lossy
Delay relative to video        : -1s 498ms
Stream size                    : 9.72 MiB (3%)
Language                       : Lithuanian

Menu
ID                             : 610 (0x262)
Menu ID                        : 25 (0x19)
Duration                       : 4mn 14s
List                           : 611 (0x263) (AVC) / 612 (0x264) (MPEG Audio, Lithuanian)
Language                       :  / Lithuanian
Service name                   : LRT HD
Service provider               : Mikrovisata Cable
Service type                   : digital television
UTC 2013-05-14 15:15:00        : lt:Siandien. / lt: /  /  / 00:20:00 /
UTC 2013-05-14 15:35:00        : lt:Sportas. / lt: /  /  / 00:05:00 /
UTC 2013-05-14 15:40:00        : lt:Orai. / lt: /  /  / 00:05:00 /
UTC 2013-05-14 15:45:00        : lt:Emdeno vyrai. / lt: /  /  / 00:55:00 /
UTC 2013-05-14 16:40:00        : lt:Nacionaline paiesku tarnyba. / lt: /  /  / 00:45:00 /
UTC 2013-05-14 17:25:00        : lt:Loterija Perlas. / lt: /  /  / 00:05:00 /
UTC 2013-05-14 17:30:00        : lt:Panorama. / lt: /  /  / 00:15:00 /
UTC 2013-05-14 17:45:00        : lt:Verslas. / lt: /  /  / 00:05:00 /
UTC 2013-05-14 17:50:00        : lt:Kultura. / lt: /  /  / 00:05:00 /
UTC 2013-05-14 17:55:00        : lt:Sportas. / lt: /  /  / 00:03:00 /
UTC 2013-05-14 17:58:00        : lt:Orai. / lt: /  /  / 00:02:00 /
UTC 2013-05-14 18:00:00        : lt:Emigrantai. / lt: /  /  / 00:55:00 /
UTC 2013-05-14 18:55:00        : lt:Loterija Perlas. / lt: /  /  / 00:05:00 /
UTC 2013-05-14 19:00:00        : lt:Eurovizijos dainu konkursas 2013. Pirmas pusfinalis. / lt: /  /  / 02:15:00 /
UTC 2013-05-14 21:35:00        : lt:Senis. / lt: /  /  / 01:15:00 /

Ignoruoju privačias žinutes, jei klausimą galima spręsti viešai forume

Neprisijungęs Soliaris

  • Sr. Member
  • ****
  • Įrašai: 286
  • Karma: +8/-15
    • Žiūrėti profilį
Ats: Andrius Pajovis - Something 1080i LRT HD
« Atsakymas #1 Įrašytas: 2013-05-15 19:05:40 »
Tai Galoj jau antra savaitė veikia LRT HD kanalas. Skynetas buvo pajungęs tik porai dienų ir pajungs tik ketvirtadienį ir šeštadienį. Tik, tiems, kas žiūri viešą Galos strimą, vaizdas pabyra. Bet nėra ko ir stebėtis, kai susijungia 10 vartotojų ir nebepakanka srauto, ypač piko valandomis. Na, o kas naudoja tik sau, mato kokybišką  vaizdelį

andrius.semas

  • Svečias
Ats: Andrius Pajovis - Something 1080i LRT HD
« Atsakymas #2 Įrašytas: 2013-05-16 00:55:37 »
Nuotolinis serveris nutraukė ryšį

Patikrinkite, ar adresas užrašytas teisingai arba pabandykite surasti interneto svetainę.

Įrašyta iš Mikrovisatos DVB-C, siuntimosi nuoroda:
Show content
20130514_224808_[15 LRT HD]_[Eurovizijos dainu konkursas 2013. Pirmas pusfinalis.].ts (383.7 MB)
https://mega.co.nz/#!wFYGWb4Y!FQMJEhiBKhL2ZNP3hLri0yGiUFhuneHS7LconKvpQeM

Tiesa girdisi traškesys, ir 2:17 pabyra vaizdas.

Vaizdo įrašo parametrai:
Show content
General
ID                             : 3 (0x3)
Complete name                  : I:\_MSTPVR\20130514_224808_[15 LRT HD]_[Eurovizijos dainu konkursas 2013. Pirmas pusfinalis.].ts
Format                         : BDAV
Format/Info                    : Blu-ray Video
File size                      : 384 MiB
Duration                       : 4mn 14s
Start time                     : UTC 2013-05-14 19:48:14
End time                       : UTC 2013-05-14 19:52:23
Overall bit rate mode          : Variable
Overall bit rate               : 12.6 Mbps
Network name                   : Mikrovisata Cable
Country                        : LTU
Timezone                       : +02:00:00

Video
ID                             : 611 (0x263)
Menu ID                        : 25 (0x19)
Format                         : AVC
Format/Info                    : Advanced Video Codec
Format profile                 : High@L4.0
Format settings, CABAC         : Yes
Format settings, ReFrames      : 4 frames
Codec ID                       : 27
Duration                       : 4mn 13s
Bit rate                       : 11.8 Mbps
Width                          : 1 920 pixels
Height                         : 1 080 pixels
Display aspect ratio           : 16:9
Frame rate                     : 25.000 fps
Standard                       : Component
Color space                    : YUV
Chroma subsampling             : 4:2:0
Bit depth                      : 8 bits
Scan type                      : Interlaced
Scan order                     : Top Field First
Bits/(Pixel*Frame)             : 0.227
Stream size                    : 356 MiB (93%)
Color primaries                : BT.709
Transfer characteristics       : BT.709
Matrix coefficients            : BT.709

Audio
ID                             : 612 (0x264)
Menu ID                        : 25 (0x19)
Format                         : MPEG Audio
Format version                 : Version 1
Format profile                 : Layer 2
Codec ID                       : 4
Duration                       : 4mn 14s
Bit rate mode                  : Constant
Bit rate                       : 320 Kbps
Channel(s)                     : 2 channels
Sampling rate                  : 48.0 KHz
Compression mode               : Lossy
Delay relative to video        : -1s 498ms
Stream size                    : 9.72 MiB (3%)
Language                       : Lithuanian

Menu
ID                             : 610 (0x262)
Menu ID                        : 25 (0x19)
Duration                       : 4mn 14s
List                           : 611 (0x263) (AVC) / 612 (0x264) (MPEG Audio, Lithuanian)
Language                       :  / Lithuanian
Service name                   : LRT HD
Service provider               : Mikrovisata Cable
Service type                   : digital television
UTC 2013-05-14 15:15:00        : lt:Siandien. / lt: /  /  / 00:20:00 /
UTC 2013-05-14 15:35:00        : lt:Sportas. / lt: /  /  / 00:05:00 /
UTC 2013-05-14 15:40:00        : lt:Orai. / lt: /  /  / 00:05:00 /
UTC 2013-05-14 15:45:00        : lt:Emdeno vyrai. / lt: /  /  / 00:55:00 /
UTC 2013-05-14 16:40:00        : lt:Nacionaline paiesku tarnyba. / lt: /  /  / 00:45:00 /
UTC 2013-05-14 17:25:00        : lt:Loterija Perlas. / lt: /  /  / 00:05:00 /
UTC 2013-05-14 17:30:00        : lt:Panorama. / lt: /  /  / 00:15:00 /
UTC 2013-05-14 17:45:00        : lt:Verslas. / lt: /  /  / 00:05:00 /
UTC 2013-05-14 17:50:00        : lt:Kultura. / lt: /  /  / 00:05:00 /
UTC 2013-05-14 17:55:00        : lt:Sportas. / lt: /  /  / 00:03:00 /
UTC 2013-05-14 17:58:00        : lt:Orai. / lt: /  /  / 00:02:00 /
UTC 2013-05-14 18:00:00        : lt:Emigrantai. / lt: /  /  / 00:55:00 /
UTC 2013-05-14 18:55:00        : lt:Loterija Perlas. / lt: /  /  / 00:05:00 /
UTC 2013-05-14 19:00:00        : lt:Eurovizijos dainu konkursas 2013. Pirmas pusfinalis. / lt: /  /  / 02:15:00 /
UTC 2013-05-14 21:35:00        : lt:Senis. / lt: /  /  / 01:15:00 /

Neprisijungęs Soliaris

  • Sr. Member
  • ****
  • Įrašai: 286
  • Karma: +8/-15
    • Žiūrėti profilį

Neprisijungęs Soliaris

  • Sr. Member
  • ****
  • Įrašai: 286
  • Karma: +8/-15
    • Žiūrėti profilį
Ats: Andrius Pajovis - Something 1080i LRT HD
« Atsakymas #4 Įrašytas: 2013-05-16 11:08:14 »
« Paskutinį kartą keitė: 2013-05-16 13:19:53 sukūrė Soliaris »

andrius.semas

  • Svečias

Neprisijungęs Soliaris

  • Sr. Member
  • ****
  • Įrašai: 286
  • Karma: +8/-15
    • Žiūrėti profilį
Ats: Andrius Pajovis - Something 1080i LRT HD
« Atsakymas #6 Įrašytas: 2013-05-17 00:28:09 »
Mano patalpintoje nuorodoje II Eurovizijos pusfinalio įrašas(greičiausiai Generalinė repeticija). Youtube įrašas niekada nebus jau originalas. Visi įrašai konvertuojami (jei aukštos kokybės) į mp4.

andrius.semas

  • Svečias
Ats: Andrius Pajovis - Something 1080i LRT HD
« Atsakymas #7 Įrašytas: 2013-05-17 20:44:46 »
Pastebiu tendenciją, kad LRT toliau sėkmingai plečią veiklą su savo raiškiosios televizijos (HDTV) transliacijomis. Šįvakar žiūrėjau informacinio pobūdžio TV laidą "Panorama". Žinoma, HD vaizdo kokybe :)

andrius.semas

  • Svečias
Ats: Andrius Pajovis - Something 1080i LRT HD
« Atsakymas #8 Įrašytas: 2013-05-17 20:58:38 »
Įkeltas priedas, leidžiantis iš vieno privataus lietuviško torrent'o trackerio greitai ir nemokamai parsisiųsti vakarykščio Eurovizijos koncerto vaizdo įrašą, parodytą per LRT HD kanalą! Daugiau info - nuotraukoje.

« Paskutinį kartą keitė: 2013-05-17 21:01:01 sukūrė andrius.semas »

andrius.semas

  • Svečias
Ats: Andrius Pajovis - Something 1080i LRT HD
« Atsakymas #9 Įrašytas: 2013-05-18 00:59:55 »
LRT HD anonsas

Neprisijungęs Soliaris

  • Sr. Member
  • ****
  • Įrašai: 286
  • Karma: +8/-15
    • Žiūrėti profilį
Ats: Andrius Pajovis - Something 1080i LRT HD
« Atsakymas #10 Įrašytas: 2013-05-18 10:09:49 »
Kur jūs čia tą sensaciją matot? Ką, pirmą kartą  rodo Euroviziją HD formatu?  Net sunku jau pasakyt, kada pirmą sykį jau buvo paleista HD transliacija. Gal net apie kokius 2008 metus, ar net anksčiau jau buvo.

andrius.semas

  • Svečias
Ats: Andrius Pajovis - Something 1080i LRT HD
« Atsakymas #11 Įrašytas: 2013-05-18 11:00:46 »
Likus pusvalandžiui iki Eurovizijos konkurso finalo tiesioginės transliacijos, pateiksiu keletą internetinių nuorodų, per kurias nemokamai galėsite pasižiūrėti koncertą per LRT HD kanalą. Viskas - nemokamai! Taigi - iki greito :)

Neprisijungęs Soliaris

  • Sr. Member
  • ****
  • Įrašai: 286
  • Karma: +8/-15
    • Žiūrėti profilį
Ats: Andrius Pajovis - Something 1080i LRT HD
« Atsakymas #12 Įrašytas: 2013-05-18 13:42:50 »
Andriuk, tau galvelė neperkaito? Kas nori matyt, tas matys ir be tavęs (Galos playlistas yra patalpintas). Beje, vienintelis, kurį galima vadinti playlistu, o ne spamu. Ir tas eina iš serverio spaustas (kad didesnis skaičius galėtų prisijungt ir matyt be lago). Lyginkit patys:
Bitų tempas                              : 11,5 Mbps
Maksimalus bitų tempas           : 40,0 Mbps
Plotis                                        : 1 920pikseliai
Aukštis                                     : 1 080pikseliai

O štai Galos iš serverio:

Bitų tempas                              : 7 217 Kbps
Plotis                                   : 1 920pikseliai
Aukštis                                  : 1 080pikseliai

Skirtumas akivaizdus. Jei norit matyti nuo 11.5 iki 40, tai čia reikia pirmoj eilėj gauti pilną srautą iš Galos ar Skyneto. Jei nėra tokių galimybių, tai pakaks susirasti Galos playlistą tarp gausybės Andriaus Semo padaryto šiukšlyno temoje IPTV playlistai.